<?xml version="1.0" standalone="no"?>
<!DOCTYPE svg PUBLIC "-//W3C//DTD SVG 1.1//EN" "http://www.w3.org/Graphics/SVG/1.1/DTD/svg11.dtd" >
<svg xmlns="http://www.w3.org/2000/svg" xmlns:xlink="http://www.w3.org/1999/xlink" version="1.1">
<metadata></metadata>
<defs>
<font id="avarabold_italic" horiz-adv-x="760" >
<font-face units-per-em="1000" ascent="800" descent="-200" />
<missing-glyph horiz-adv-x="320" />
<glyph unicode="&#xfb01;" d="M-240 -280v120l80 40l40 -40v-80h40l320 720h-120v40h80l80 40l80 160l80 80l120 40l200 -40l40 -80l-40 -80l-120 40l40 80l-120 40l-80 -80l-120 -200h160l120 40l80 -40v-40l-240 -400h40l200 200l40 -40l-200 -200l-80 -40h-80l-40 40v40l240 400h-240l-280 -640 l-120 -120l-80 -40z" />
<glyph unicode="&#xfb02;" horiz-adv-x="800" d="M-240 -280v120l80 40l40 -40v-80h40l320 720h-120v40h80l80 40l80 160l80 80l120 40h320l-360 -760h40l200 200l40 -40l-200 -200l-120 -40l-80 40v40l320 680h-200l-160 -240h160v-40h-160l-280 -640l-120 -120l-80 -40z" />
<glyph unicode="&#xfb03;" horiz-adv-x="1120" d="M120 -280v120l80 40l40 -40v-80h40l320 720h-240l-280 -640l-120 -120l-80 -40l-120 40v120l80 40l40 -40v-80h40l320 720h-120v40h80l80 40l80 160l80 80l120 40l120 -40v-120l-80 -40l-40 40v80h-40l-160 -240h200l80 40l80 160l80 80l120 40l200 -40l40 -80l-40 -80 l-120 40l40 80l-120 40l-80 -80l-120 -200h160l120 40l80 -40v-40l-240 -400h40l200 200l40 -40l-200 -200l-80 -40h-80l-40 40v40l240 400h-240l-280 -640l-120 -120l-80 -40z" />
<glyph unicode="&#xfb04;" horiz-adv-x="1160" d="M120 -280v120l80 40l40 -40v-80h40l320 720h-240l-280 -640l-120 -120l-80 -40l-120 40v120l80 40l40 -40v-80h40l320 720h-120v40h80l80 40l80 160l80 80l120 40l120 -40v-120l-80 -40l-40 40v80h-40l-160 -240h200l80 40l80 160l80 80l120 40h320l-360 -760h40l200 200 l40 -40l-200 -200l-120 -40l-80 40v40l320 680h-200l-160 -240h160v-40h-160l-280 -640l-120 -120l-80 -40z" />
<glyph horiz-adv-x="0" />
<glyph horiz-adv-x="333" />
<glyph unicode=" "  horiz-adv-x="320" />
<glyph unicode="&#x09;" horiz-adv-x="320" />
<glyph unicode="&#xa0;" horiz-adv-x="320" />
<glyph unicode="!" horiz-adv-x="240" d="M320 800h80l40 -40l-280 -520h-40l160 520zM120 0l-80 40v40l40 80h40l80 -40v-40l-40 -80h-40z" />
<glyph unicode="&#x22;" horiz-adv-x="440" d="M200 600l40 160l40 40h40l40 -40v-40l-160 -160v40zM360 600l40 160l40 40h40l40 -40v-40l-160 -160v40z" />
<glyph unicode="#" horiz-adv-x="680" d="M80 240l40 80h80l120 160h-120l40 80h120l120 160h80l-120 -160h120l120 160h80l-120 -160h80l-40 -80h-80l-120 -160h120l-40 -80h-120l-120 -160h-80l120 160h-120l-120 -160h-80l120 160h-80zM280 320h120l120 160h-120z" />
<glyph unicode="$" horiz-adv-x="600" d="M680 600h-40l-120 160h-40l-80 -240l80 -160l40 -160l-40 -160l-160 -80l-100 20l-20 -60h-40l23 67l-63 13l-80 -40l-40 280h40l120 -200h40l104 312l-64 128l-40 160l40 120l120 80l100 -20l20 60h40l-22 -67l62 -13l80 40zM320 640l53 -80l67 200h-40l-40 -40z M400 200l-71 107l-89 -267h40l80 40l40 40v80z" />
<glyph unicode="%" d="M680 840h80l-680 -880h-80zM280 800h80l40 -40l40 -120l-120 -200l-120 -40h-80l-40 40l-40 120l120 200zM280 760l-40 -40l-80 -160v-80l40 -40l40 40l80 160v80zM560 400h80l40 -40l40 -120l-120 -200l-120 -40h-80l-40 40l-40 120l120 200zM560 360l-40 -40l-80 -160 v-80l40 -40l40 40l80 160v80z" />
<glyph unicode="&#x26;" horiz-adv-x="800" d="M200 240l80 -160h40l120 120l80 120l40 80h-320v40h320l80 40l80 200h80l-120 -240h160v-40h-160l-160 -320h40l200 200l40 -40l-200 -200l-80 -40h-40l-40 40v80l-80 -80l-80 -40h-40l-120 80l-80 200l40 200l80 120l120 120l160 80h80l120 -40l40 -120l-40 -40h-40 l-40 120l-40 40h-40l-200 -160l-80 -240v-120z" />
<glyph unicode="'" horiz-adv-x="280" d="M200 600l40 160l40 40h40l40 -40v-40l-160 -160v40z" />
<glyph unicode="(" horiz-adv-x="480" d="M240 -120l-120 160l-40 120v160l40 160l120 160l160 120l120 40l40 -40l-120 -40l-120 -120l-80 -160l-40 -160v-200l80 -160z" />
<glyph unicode=")" horiz-adv-x="480" d="M240 800l120 -160l40 -120v-160l-40 -160l-120 -160l-160 -120l-120 -40l-40 40l120 40l120 120l80 160l40 160v200l-80 160z" />
<glyph unicode="*" horiz-adv-x="440" d="M40 760l40 40l120 -40l-40 120l40 40h40l40 -40l-40 -120l120 40l40 -40v-40l-40 -40l-120 40l40 -120l-40 -40h-40l-40 40l40 120l-120 -40l-40 40v40z" />
<glyph unicode="+" horiz-adv-x="600" d="M0 360h240v240h80v-240h240v-80h-240v-240h-80v240h-240v80z" />
<glyph unicode="," horiz-adv-x="240" d="M120 -120h-120v40h80l40 80l-80 40v40l40 80h40l80 -40v-80z" />
<glyph unicode="-" horiz-adv-x="320" d="M40 320h240v-80h-240v80z" />
<glyph unicode="." horiz-adv-x="200" d="M80 0l-80 40v40l40 80h40l80 -40v-40l-40 -80h-40z" />
<glyph unicode="/" horiz-adv-x="320" d="M360 760h80l-480 -840h-80z" />
<glyph unicode="0" horiz-adv-x="680" d="M480 80l-160 -80h-80l-160 80l-40 120v200l80 200l80 120l160 80h80l160 -80l40 -120v-200l-80 -200zM520 560l-40 160l-80 40l-80 -40l-80 -160l-80 -320l40 -160l80 -40l80 40l80 160z" />
<glyph unicode="1" horiz-adv-x="480" d="M360 760l80 40l-240 -720l80 -80h-320l120 80l160 480h-120v40l160 80z" />
<glyph unicode="2" horiz-adv-x="640" d="M200 640v-160h-40l-80 120l40 120l160 80h120l160 -80l40 -120v-80l-160 -200l-160 -120l-200 -120l240 -40l160 200h40l-80 -280l-120 40h-400v40l360 240l120 120l80 160l-40 160l-120 40l-80 -40z" />
<glyph unicode="3" horiz-adv-x="680" d="M400 440l120 -40l40 -80v-120l-120 -120l-160 -80h-80l-160 80l-40 120l80 120h40v-160l40 -80l80 -40l80 40l120 120v120l-80 80h-160l40 80h120l120 40l40 80l-40 120l-80 40l-80 -40l-40 -80v-80h-80l-80 80l40 80l160 80h120l160 -80l40 -120l-80 -120z" />
<glyph unicode="4" horiz-adv-x="640" d="M440 800l-80 -240l-80 -120l-160 -200l240 -40l200 600h120l-240 -720l80 -80h-320l120 80l40 80h-320l-80 80l240 200l80 120l40 240h120z" />
<glyph unicode="5" horiz-adv-x="640" d="M600 680h-320l-120 -240l80 40l120 40l120 -40l80 -120v-160l-120 -120l-160 -80h-80l-160 80l-40 120l80 120h40v-160l40 -80l80 -40l80 40l120 120v160l-80 80h-80l-160 -80l-40 40l160 400h400z" />
<glyph unicode="6" horiz-adv-x="680" d="M160 360l120 120l120 40l120 -40l80 -120v-160l-120 -120l-160 -80h-80l-160 80l-40 120v160l80 200l160 160l160 80h80l160 -80v-40l-80 -120h-40v160l-80 40l-80 -40l-160 -200zM200 80l80 -40l80 40l120 120v160l-80 80h-80l-160 -160v-80z" />
<glyph unicode="7" horiz-adv-x="520" d="M160 0h-160l200 360l200 240l160 160h-280l-80 -40v-160h-40l-80 120v120h520v-40l-160 -200l-160 -240z" />
<glyph unicode="8" horiz-adv-x="640" d="M280 440l-80 40l-40 80v80l40 80l160 80h80l120 -40l80 -120v-80l-40 -80l-80 -40l-120 -40l120 -40l40 -80v-80l-80 -120l-200 -80h-80l-160 80l-40 120l40 120l80 80zM440 760l-120 -40l-40 -80v-120l80 -80l120 40l40 80v120zM200 360l-80 -120v-80l40 -80l80 -40 l120 40l80 120v80l-40 80l-80 40z" />
<glyph unicode="9" horiz-adv-x="680" d="M520 440l-120 -120l-120 -40l-120 40l-80 120v160l120 120l160 80h80l160 -80l40 -120v-160l-80 -200l-160 -160l-160 -80h-80l-160 80v40l80 120h40v-160l80 -40l80 40l160 200zM280 360h80l160 160v80l-40 120l-80 40l-80 -40l-120 -120v-160z" />
<glyph unicode=":" horiz-adv-x="280" d="M200 360l-80 40v40l40 80h40l80 -40v-40l-40 -80h-40zM80 0l-80 40v40l40 80h40l80 -40v-40l-40 -80h-40z" />
<glyph unicode=";" horiz-adv-x="320" d="M240 360l-80 40v40l40 80h40l80 -40v-40l-40 -80h-40zM120 -120h-120v40h80l40 80l-80 40v40l40 80h40l80 -40v-80z" />
<glyph unicode="&#x3c;" horiz-adv-x="480" d="M80 280v79l320 241l40 -80l-320 -200l320 -200l-40 -80z" />
<glyph unicode="=" horiz-adv-x="560" d="M520 360h-480v80h480v-80zM520 200h-480v80h480v-80z" />
<glyph unicode="&#x3e;" horiz-adv-x="480" d="M80 40l-40 80l320 200l-320 200l40 80l320 -241v-79z" />
<glyph unicode="?" horiz-adv-x="520" d="M280 520l-80 80v40l80 120l120 40h80l120 -40l80 -120v-80l-80 -120l-160 -80l-120 -40l-40 -80h-40l40 120l120 40l120 80l40 80v80l-40 80l-80 40l-80 -40l-40 -80v-120h-40zM240 0l-80 40v40l40 80h40l80 -40v-40l-40 -80h-40z" />
<glyph unicode="@" horiz-adv-x="920" d="M80 440l160 160l240 80h80l200 -80l80 -80l40 -160l-40 -160l-40 -80l-120 -80l-120 -40l-40 40v80l-120 -120h-80l-80 40l-40 160l80 200l200 120l120 -40l40 -80l40 80l40 -40l-120 -360h40l80 80l40 80v120l-40 160l-80 80l-120 40l-200 -80l-120 -120l-80 -200 l80 -240l160 -80l200 -40l-40 -40l-240 40l-160 80l-120 240zM560 440h-40l-120 -80l-80 -160l40 -120h40l120 120l80 120v40z" />
<glyph unicode="A" horiz-adv-x="800" d="M240 0h-280l120 80l480 640v40l120 80v-760l80 -80h-280l80 80v120l-40 40h-240l-120 -160zM560 640l-200 -280l-40 -80h200l40 40v320z" />
<glyph unicode="B" d="M200 800h320l200 -40l40 -160l-120 -120l-80 -40l120 -40l40 -160l-120 -160l-200 -80h-400l80 80l200 640zM200 80l40 -40h80l160 80l80 120l-40 120l-80 40h-120v40h80l120 40l80 120v120l-80 40h-80l-40 -40z" />
<glyph unicode="C" horiz-adv-x="720" d="M200 240l40 -160l80 -40h80l120 80l120 120l40 -40l-120 -120l-120 -80h-160l-160 80l-80 200l40 200l80 120l120 120l160 80h120l200 -80l40 -80l-80 -80h-80v120l-80 80h-80l-200 -160l-80 -240v-120z" />
<glyph unicode="D" horiz-adv-x="840" d="M200 800h360l200 -80l80 -200l-40 -200l-80 -120l-120 -120l-160 -80h-480l120 80l200 640zM680 440v120l-40 160l-80 40h-120l-40 -40l-200 -640l40 -40h160l80 40l120 120z" />
<glyph unicode="E" horiz-adv-x="720" d="M640 240l-40 -280l-80 40h-560l120 80l200 640l-80 80h400l160 40l40 -240h-40l-120 160h-200l-40 -40l-80 -240v-40h160l80 80v-200l-80 80h-160l-40 -40l-80 -280l40 -40h240l120 200h40z" />
<glyph unicode="F" horiz-adv-x="640" d="M-40 0l120 80l200 640l-80 80h400l160 40l40 -240h-40l-120 160h-200l-40 -40l-80 -240v-40h160l80 80v-200l-80 80h-160l-40 -40l-80 -280l80 -80h-320z" />
<glyph unicode="G" d="M200 240l40 -120l120 -80h40l80 40l40 40l40 120l-40 80h240l-80 -80l-80 -120l-80 -80l-80 -40h-160l-160 80l-80 200l40 200l80 120l120 120l160 80h120l200 -80l40 -80l-80 -80h-80v120l-80 80h-80l-200 -160l-80 -240v-120z" />
<glyph unicode="H" horiz-adv-x="920" d="M520 800l-120 -80l-80 -240v-40h400l40 40l80 240l-80 80h320l-120 -80l-200 -640l80 -80h-320l120 80l80 280v40h-400l-40 -40l-80 -280l80 -80h-320l120 80l200 640l-80 80h320z" />
<glyph unicode="I" horiz-adv-x="400" d="M200 80l80 -80h-320l120 80l200 640l-80 80h320l-120 -80z" />
<glyph unicode="J" horiz-adv-x="400" d="M0 -80l120 120l40 80l200 600l-80 80h320l-120 -80l-200 -600l-80 -120l-160 -120z" />
<glyph unicode="K" d="M200 80l80 -80h-320l120 80l200 640l-80 80h280l-80 -80zM680 0l-40 -40l-120 120l-80 200l-120 120v40l360 280l-80 80h280l-480 -360l160 -120z" />
<glyph unicode="L" horiz-adv-x="600" d="M480 0h-520l120 80l200 640l-80 80h320l-120 -80l-200 -640l40 -40h200l120 200h40l-40 -280z" />
<glyph unicode="M" horiz-adv-x="1000" d="M480 160l400 640h240l-120 -80l-200 -640l80 -80h-320l120 80l200 600l-440 -680l-80 -40v800l-200 -680l80 -80h-280l120 80l200 640l-80 80h280v-640z" />
<glyph unicode="N" horiz-adv-x="880" d="M680 40l-120 -80l-200 800l-200 -680l80 -80h-280l120 80l200 640l-80 80h280l160 -680l160 600l-80 80h280l-120 -80z" />
<glyph unicode="O" horiz-adv-x="840" d="M600 80l-160 -80h-120l-200 80l-80 200l40 200l80 120l120 120l160 80h120l200 -80l80 -200l-40 -200l-80 -120zM680 560l-40 160l-80 40h-80l-200 -160l-80 -240v-120l40 -160l80 -40h80l80 40l120 120l80 240v120z" />
<glyph unicode="P" horiz-adv-x="720" d="M200 80l80 -80h-320l120 80l200 640l-80 80h320l200 -40l80 -160l-160 -200l-200 -80l-120 40v40h80l120 40l120 160l-40 120l-80 40h-80l-40 -40z" />
<glyph unicode="Q" horiz-adv-x="840" d="M440 0l120 -80l120 -40h120v-40l-160 -40l-160 40l-160 160l-200 80l-80 200l40 200l80 120l120 120l160 80h120l200 -80l80 -200l-40 -200l-80 -120l-120 -120zM680 560l-40 160l-80 40h-80l-200 -160l-80 -240v-120l40 -160l80 -40h80l80 40l120 120l80 240v120z" />
<glyph unicode="R" d="M320 440h160l80 40l80 120l-40 120l-80 40h-80l-40 -40l-200 -640l80 -80h-320l120 80l200 640l-80 80h320l200 -40l80 -160l-120 -160l-240 -40l120 -80l120 -320l-40 -40l-120 120l-80 200l-40 80l-80 40v40z" />
<glyph unicode="S" horiz-adv-x="600" d="M680 600h-40l-120 160h-120l-40 -40l-40 -80l80 -120l80 -160l40 -160l-40 -160l-160 -80l-200 40l-80 -40l-40 280h40l120 -200h120l80 40l40 40v80l-80 120l-80 160l-40 160l40 120l120 80l200 -40l80 40z" />
<glyph unicode="T" horiz-adv-x="680" d="M840 600h-40l-80 120l-160 40l-200 -680l80 -80h-320l120 80l200 680l-200 -40l-40 -120h-40v240l160 -40h320l160 40z" />
<glyph unicode="U" horiz-adv-x="840" d="M680 240l-80 -120l-80 -80l-120 -40h-80l-160 40l-80 80v120l160 480l-80 80h320l-120 -80l-160 -480v-80l40 -80l80 -40h40l120 40l40 40l80 120l120 480l-80 80h320l-120 -80z" />
<glyph unicode="V" horiz-adv-x="680" d="M600 720l-80 80h280l-120 -80l-520 -720l-80 -40v760l-80 80h280l-80 -80v-560z" />
<glyph unicode="W" horiz-adv-x="960" d="M600 760v-520l280 480l-80 80h280l-120 -80l-440 -720l-40 -40v640l-320 -600l-80 -40v760l-80 80h280l-80 -80v-520l280 520z" />
<glyph unicode="X" horiz-adv-x="840" d="M720 720l-80 80h280l-440 -400l160 -320l80 -80h-320l80 80l-40 280h-40l-240 -280l80 -80h-280l400 400l-120 320l-80 80h320l-80 -80v-280h40z" />
<glyph unicode="Y" d="M400 520v-80h40l240 280l-80 80h280l-120 -80l-320 -360l-80 -280l80 -80h-320l120 80l80 280l-80 360l-80 80h280l-80 -80z" />
<glyph unicode="Z" horiz-adv-x="720" d="M120 80l320 -40l120 200h40l-40 -280l-80 40h-520v40l640 720h-240l-120 -160h-40l40 240l160 -40h400z" />
<glyph unicode="[" horiz-adv-x="360" d="M240 800h240v-40l-200 -40l-240 -720v-80l120 -40v-40h-240z" />
<glyph unicode="\" horiz-adv-x="160" d="M120 -80h-80v840h80v-840z" />
<glyph unicode="]" horiz-adv-x="360" d="M120 -160h-240v40l200 40l240 720v80l-120 40v40h240z" />
<glyph unicode="^" horiz-adv-x="833" d="M160 520l240 160h80v-160h-50v90l-230 -90h-40z" />
<glyph unicode="_" horiz-adv-x="800" d="M80 -80h640v-40h-640v40z" />
<glyph unicode="`" horiz-adv-x="840" d="M320 640h-40l-120 120v40l40 40h40z" />
<glyph unicode="a" horiz-adv-x="720" d="M640 520l-200 -440h40l200 200l40 -40l-200 -200l-120 -40l-40 40v80l-120 -120h-80l-80 40l-40 160l80 200l200 160l160 -40l40 -80l80 120zM240 80l120 120l120 160v40l-40 80h-80l-120 -120l-80 -160l40 -120h40z" />
<glyph unicode="b" horiz-adv-x="640" d="M320 800h-120v40h280l-200 -400l80 80l120 40l80 -40l40 -160l-80 -200l-200 -160h-160l-80 80l-80 -120l-40 40l200 400zM360 440l-120 -120l-120 -160v-40l40 -40h80l160 120l80 160l-40 120z" />
<glyph unicode="c" horiz-adv-x="560" d="M560 360h-120v120h-80l-120 -120l-80 -160l40 -120h80l160 160l40 -40l-160 -160l-80 -40h-80l-80 40l-40 160l120 240l200 120l160 -40l40 -80v-80z" />
<glyph unicode="d" horiz-adv-x="720" d="M400 0l-40 40v80l-120 -120h-80l-80 40l-40 160l80 200l200 160l160 -40l40 -80l120 360h-120v40h280l-360 -760h40l200 200l40 -40l-200 -200l-80 -40h-40zM240 80l120 120l120 160v40l-40 80h-80l-120 -120l-80 -160l40 -120h40z" />
<glyph unicode="e" horiz-adv-x="560" d="M560 360l-120 -80h-200v40h120l80 40v120h-80l-120 -120l-80 -160l40 -120h80l160 160l40 -40l-160 -160l-80 -40h-80l-80 40l-40 160l120 240l200 120l160 -40l40 -80v-80z" />
<glyph unicode="f" horiz-adv-x="440" d="M-240 -280v120l80 40l40 -40v-80h40l320 720h-120v40h80l80 40l80 160l80 80l120 40l120 -40v-120l-80 -40l-40 40v80h-40l-160 -240h160v-40h-160l-280 -640l-120 -120l-80 -40z" />
<glyph unicode="g" horiz-adv-x="600" d="M80 120l80 40l-80 160l40 120l200 120l160 -40h160v-40h-120l40 -120l-40 -120l-200 -120h-120v-40l200 -160v-80l-80 -120l-160 -40h-80l-160 80l-40 120l40 80l200 80l-40 40v40zM320 480l-120 -120v-40l40 -120h80l120 120v40l-40 120h-80zM160 0l-120 -40l-40 -80 l40 -80l120 -80l120 80v80z" />
<glyph unicode="h" horiz-adv-x="640" d="M280 800h-120v40h280l-200 -400l80 80l120 40l120 -40v-120l-200 -320h40l200 200l40 -40l-200 -200l-80 -40h-80l-40 40v40l200 360l-40 40l-80 -40l-120 -120l-160 -320h-80l-40 40l200 360z" />
<glyph unicode="i" horiz-adv-x="440" d="M440 640l-80 40v40l40 80h40l80 -40v-40l-40 -80h-40zM0 320l200 200l120 40l80 -40v-40l-240 -400h40l200 200l40 -40l-200 -200l-80 -40h-80l-40 40v40l240 400h-40l-200 -200z" />
<glyph unicode="j" horiz-adv-x="400" d="M440 640l-80 40v40l40 80h40l80 -40v-40l-40 -80h-40zM0 320l200 200l160 40l40 -40v-40l-280 -640l-120 -120l-80 -40l-120 40v120l80 40l40 -40v-80h40l80 160l240 560h-40l-200 -200z" />
<glyph unicode="k" horiz-adv-x="600" d="M200 200l40 160l-160 -360h-80l-40 40l200 360l160 400h-120v40h280l-280 -480h40l120 160l120 40l120 -80v-80l-120 -120l-120 -40h-80v-80l40 -40h80l160 160l40 -40l-160 -160l-120 -80h-80l-40 80v120zM280 320v-40h80l80 40l40 80l-40 80h-40z" />
<glyph unicode="l" horiz-adv-x="400" d="M120 80h40l200 200l40 -40l-200 -200l-120 -40l-80 40v40l320 720h-120v40h280z" />
<glyph unicode="m" horiz-adv-x="1040" d="M640 360l-160 -360h-80l-40 40l200 400l-40 40l-80 -40l-120 -120l-160 -320h-80l-40 40l240 440h-40l-200 -200l-40 40l200 200l120 40l40 -40v-40l-40 -80l120 120l120 40l80 -40v-80l80 80l120 40l120 -40v-120l-200 -320h40l200 200l40 -40l-200 -200l-80 -40h-80 l-40 40v40l200 360l-40 40l-80 -40z" />
<glyph unicode="n" d="M0 320l200 200l120 40l40 -40v-40l-40 -80l120 120l120 40l120 -40v-120l-200 -320h40l200 200l40 -40l-200 -200l-80 -40h-80l-40 40v40l200 360l-40 40l-80 -40l-120 -120l-160 -320h-80l-40 40l240 440h-40l-200 -200z" />
<glyph unicode="o" horiz-adv-x="640" d="M200 0l-80 40l-80 160l120 240l200 120l160 -40l80 -160l-120 -240l-200 -120h-80zM360 480l-120 -120l-80 -160l40 -120h80l120 120l80 160l-40 120h-80z" />
<glyph unicode="p" horiz-adv-x="720" d="M320 560l40 -40v-80l80 80l120 40l80 -40l40 -160l-80 -200l-200 -160h-160l-40 120l-160 -360h160v-40h-360v40h80l360 720h-40l-200 -200l-40 40l200 200zM440 440l-120 -120l-80 -120v-40l40 -80h80l120 120l80 160l-40 120z" />
<glyph unicode="q" horiz-adv-x="640" d="M320 -280h120v-40h-360v40h120l160 360l-120 -80h-80l-80 40l-40 160l80 200l200 160l160 -40l80 -80l80 120l40 -40l-200 -400zM240 80l160 120l120 160v40l-40 40l-80 40l-160 -120l-80 -160l40 -120h40z" />
<glyph unicode="r" horiz-adv-x="520" d="M0 320l200 200l120 40l40 -40v-40l-80 -120h40l120 160l80 40l80 -40l-40 -120h-120l-120 -80l-160 -320h-80l-40 40l240 440h-40l-200 -200z" />
<glyph unicode="s" horiz-adv-x="480" d="M80 40h40l80 80v80l-40 160v80l40 80l160 40l120 -40v-120l-80 -40l-40 40v120l-80 -40v-80l40 -200v-80l-80 -80l-120 -40h-80l-80 40v120l80 40l40 -40v-120z" />
<glyph unicode="t" horiz-adv-x="440" d="M120 80h40l200 200l40 -40l-200 -200l-80 -40h-80l-40 40v40l200 400h-80v40h80l80 40l40 120h80l-80 -160h120v-40h-120z" />
<glyph unicode="u" d="M760 240l-200 -200l-80 -40h-40l-40 40v80l-120 -120h-80l-80 40l-40 120l200 320h-40l-200 -200l-40 40l200 200l120 40l80 -40v-40l-200 -320l40 -80h40l160 160l160 280h80l40 -40l-240 -400h40l200 200z" />
<glyph unicode="v" horiz-adv-x="600" d="M520 400h-40l-40 40l40 80h80l40 -40v-80l-80 -160l-160 -160l-200 -80h-80l-40 40v40l240 400h-40l-200 -200l-40 40l200 200l120 40l80 -40v-80l-240 -360h40l120 40l160 160z" />
<glyph unicode="w" horiz-adv-x="880" d="M800 400h-40l-40 40l40 80h80l40 -40v-80l-80 -160l-160 -160l-160 -80h-80l-40 40l40 120l-120 -120l-80 -40h-80l-40 40v40l160 400h-40l-160 -200l-40 40l160 200l120 40l80 -40v-40l-160 -400h40l200 200l80 240h80l40 -40l-160 -400h40l80 40l160 160z" />
<glyph unicode="x" horiz-adv-x="600" d="M560 560l80 -80l-280 -200v40zM40 -40l-80 80l320 240l-80 120h-40l-120 -120l-40 40l200 200l80 40l40 -40v-280l80 -120h40l80 80l40 -40l-160 -160h-80l-40 40v200z" />
<glyph unicode="y" horiz-adv-x="680" d="M480 320l120 200h80l40 -40l-360 -560l-120 -160l-120 -80h-40l-80 40v120l80 40l40 -40v-80h40l40 40l80 120l160 280l-160 -160l-80 -40h-80l-40 40v40l200 400h-40l-200 -200l-40 40l200 200l120 40l80 -40v-40l-200 -400h40z" />
<glyph unicode="z" horiz-adv-x="520" d="M400 160v-120l-80 -40h-200l-80 80l-80 -80l-40 40l440 360l-200 40l-40 -40v-80h-40v200l200 40l160 -80l80 80l40 -40l-440 -400l160 -40v80l80 40z" />
<glyph unicode="{" horiz-adv-x="480" d="M240 -120l-120 160l-40 120v160l-80 80l80 40l40 40l80 160l160 120l160 40l40 -40l-160 -40l-120 -120l-40 -120l-40 -40l-80 -40l80 -80v-240l80 -160z" />
<glyph unicode="|" horiz-adv-x="160" d="M200 760h40l-280 -840h-40z" />
<glyph unicode="}" horiz-adv-x="480" d="M240 800l120 -160l40 -120v-160l80 -80l-80 -40l-40 -40l-80 -160l-160 -120l-160 -40l-40 40l160 40l120 120l40 120l40 40l80 40l-80 80v240l-80 160z" />
<glyph unicode="~" horiz-adv-x="600" d="M120 400l120 -80l80 80h80l120 -80l-40 -40l-120 80l-80 -80h-80l-120 80z" />
<glyph unicode="&#xa1;" horiz-adv-x="240" d="M120 320l-80 40v40l40 80h40l80 -40v-40l-40 -80h-40zM-80 -320h-80l-40 40l280 520h40l-160 -520z" />
<glyph unicode="&#xa2;" horiz-adv-x="560" d="M560 520h-120v120h-27l-133 -400l160 160l40 -40l-160 -160l-64 -32l-56 -168h-40l53 160h-53l-80 40l-40 160l120 240l200 120l37 -9l43 129h40l-46 -138l86 -22l40 -80v-80zM200 240h40l133 400h-13l-120 -120l-80 -160z" />
<glyph unicode="&#xa3;" horiz-adv-x="720" d="M80 400h160v40l-80 160l80 120l200 80h80l160 -80l40 -80l-80 -80h-80v120l-40 80h-40l-120 -80l-40 -80l40 -160v-40h160v-40h-160v-40l-120 -160l-200 -120h360l160 200h40l-80 -280l-80 40h-520v40l240 160l80 120v40h-160v40z" />
<glyph unicode="&#xa5;" d="M160 400h160l-80 320l-80 80h280l-80 -80l40 -200v-80h40l240 280l-80 80h280l-120 -80l-280 -320h120v-40h-440v40zM120 280h480v-40h-200l-40 -160l80 -80h-320l120 80l40 160h-160v40z" />
<glyph unicode="&#xa6;" horiz-adv-x="120" d="M200 760h40l-120 -360h-40zM40 280h40l-120 -360h-40z" />
<glyph unicode="&#xa7;" horiz-adv-x="560" d="M640 600h-40l-80 120h-80l-80 -40v-80l40 -120l80 -200v-80l-80 -120l-160 -40l80 -120v-120l-80 -80l-160 -40l-80 40l-40 -40l-40 200h40l80 -120h80l80 40v80l-40 120l-80 200v80l80 120l160 40l-80 120v120l80 80l160 40l80 -40l40 40zM200 320v-160l40 -80h40l80 80 v160l-40 80h-40z" />
<glyph unicode="&#xa8;" horiz-adv-x="833" d="M220 800h80v-80l-40 -40h-40l-40 40v40zM380 800h80v-80l-40 -40h-40l-40 40v40z" />
<glyph unicode="&#xa9;" horiz-adv-x="833" d="M80 161v679h680v-679h-680zM120 800v-599h600v599h-600zM561 680l-120 40l-120 -80l-40 -120v-40l40 -120l120 -80l120 40l40 80l80 -40l-80 -80l-120 -40h-120l-120 80l-80 120v120l80 120l120 80h120l160 -40l40 -80l-40 -80h-40z" />
<glyph unicode="&#xab;" horiz-adv-x="520" d="M40 320l280 280l40 -80l-240 -200l120 -200l-40 -80zM240 280v80l240 200l40 -80l-240 -160l120 -160l-40 -80z" />
<glyph unicode="&#xad;" horiz-adv-x="320" d="M40 320h240v-80h-240v80z" />
<glyph unicode="&#xae;" horiz-adv-x="840" d="M80 161v679h680v-679h-680zM120 800v-599h600v599h-600zM161 760h280l160 -40l80 -120l-80 -120l-120 -40l200 -40v-120l-40 -40l-200 160l-80 40v-120l80 -80h-280l80 80v360zM401 720l-40 -40v-200h80l80 40l40 80l-40 80l-80 40h-40z" />
<glyph unicode="&#xb0;" horiz-adv-x="480" d="M80 760l120 120h80l120 -120v-80l-120 -120h-80l-120 120v80zM160 680l80 -80l80 80v80l-80 80l-80 -80v-80z" />
<glyph unicode="&#xb1;" horiz-adv-x="600" d="M0 480h240v240h80v-240h240v-80h-240v-240h-80v240h-240v80zM40 80h480v-80h-480v80z" />
<glyph unicode="&#xb4;" horiz-adv-x="840" d="M240 640l160 160h40l40 -40v-40l-200 -80h-40z" />
<glyph unicode="&#xb6;" horiz-adv-x="520" d="M520 760h-80l-320 -1080h-40l200 680h-80l-80 40l-40 120l40 160l120 80l120 40h200l-320 -1120h-40z" />
<glyph unicode="&#xb8;" horiz-adv-x="833" d="M310 -240h-120l-40 80l40 40l40 -80h40l40 80l-40 40v40l140 180l40 -40l-140 -140l40 -40v-80z" />
<glyph unicode="&#xbb;" horiz-adv-x="520" d="M200 40l-40 80l240 200l-120 200l40 80l160 -280zM40 80l-40 80l240 160l-120 160l40 80l120 -200v-80z" />
<glyph unicode="&#xbc;" d="M720 840h80l-680 -880h-80zM360 800l-120 -320l80 -80h-280l120 80l80 200h-80v40l120 40zM640 400l-40 -120l-120 -80l80 -40l120 240h80l-160 -320l80 -80h-280l120 80l40 40h-160l-40 40l160 120l40 120h80z" />
<glyph unicode="&#xbd;" d="M680 840h80l-680 -880h-80zM320 800l-120 -320l80 -80h-280l120 80l80 200h-80v40l120 40zM480 280v-120h-40l-40 80v40l40 80l80 40h120l80 -80v-80l-80 -80l-240 -120h120l120 80h40l-40 -120h-320v40l200 120l80 80v80l-40 40z" />
<glyph unicode="&#xbe;" d="M320 640l80 -40v-80l-80 -80l-120 -40h-40l-80 40l-40 80l80 40h40v-80l40 -40l80 40l40 80l-40 40h-80v40h80l40 80v40l-40 40l-80 -40v-80h-40l-40 40l40 80l120 40l120 -40l40 -80l-40 -40zM720 840h80l-680 -880h-80zM640 400l-40 -120l-120 -80l80 -40l120 240h80 l-160 -320l80 -80h-280l120 80l40 40h-160l-40 40l160 120l40 120h80z" />
<glyph unicode="&#xbf;" horiz-adv-x="520" d="M280 320l-80 40v40l40 80h40l80 -40v-40l-40 -80h-40zM240 -40l80 -80v-40l-80 -120l-120 -40h-80l-120 40l-80 120v80l80 120l160 80l120 40l40 80h40l-40 -120l-120 -40l-120 -80l-40 -80v-80l40 -80l80 -40l80 40l40 80v120h40z" />
<glyph unicode="&#xc0;" horiz-adv-x="800" d="M700 880h-40l-120 120v40l40 40h40zM240 0h-280l120 80l480 640v40l120 80v-760l80 -80h-280l80 80v120l-40 40h-240l-120 -160zM560 640l-200 -280l-40 -80h200l40 40v320z" />
<glyph unicode="&#xc1;" horiz-adv-x="800" d="M540 880l160 160h40l40 -40v-40l-200 -80h-40zM240 0h-280l120 80l480 640v40l120 80v-760l80 -80h-280l80 80v120l-40 40h-240l-120 -160zM560 640l-200 -280l-40 -80h200l40 40v320z" />
<glyph unicode="&#xc2;" horiz-adv-x="800" d="M460 880l240 160h80v-160h-50v90l-230 -90h-40zM240 0h-280l120 80l480 640v40l120 80v-760l80 -80h-280l80 80v120l-40 40h-240l-120 -160zM560 640l-200 -280l-40 -80h200l40 40v320z" />
<glyph unicode="&#xc3;" horiz-adv-x="800" d="M460 1040l80 -80l80 80h80l80 -80l-40 -40l-80 80l-80 -80h-80l-80 80zM240 0h-280l120 80l480 640v40l120 80v-760l80 -80h-280l80 80v120l-40 40h-240l-120 -160zM560 640l-200 -280l-40 -80h200l40 40v320z" />
<glyph unicode="&#xc4;" horiz-adv-x="800" d="M520 1040h80v-80l-40 -40h-40l-40 40v40zM680 1040h80v-80l-40 -40h-40l-40 40v40zM240 0h-280l120 80l480 640v40l120 80v-760l80 -80h-280l80 80v120l-40 40h-240l-120 -160zM560 640l-200 -280l-40 -80h200l40 40v320z" />
<glyph unicode="&#xc5;" horiz-adv-x="800" d="M520 1000l80 80h40l80 -80v-40l-80 -80h-40l-80 80v40zM560 960l40 -40h40l40 40v40l-40 40h-40l-40 -40v-40zM240 0h-280l120 80l480 640v40l120 80v-760l80 -80h-280l80 80v120l-40 40h-240l-120 -160zM560 640l-200 -280l-40 -80h200l40 40v320z" />
<glyph unicode="&#xc6;" horiz-adv-x="1080" d="M240 0h-280l120 80l480 640l-80 80h480l160 40l40 -240h-40l-120 160h-320v-320h160l80 80v-200l-80 80h-160v-320l40 -40h120l120 200h40l-40 -280l-80 40h-400l80 80v120l-40 40h-240l-120 -160zM560 640l-200 -280l-40 -80h200l40 40v320z" />
<glyph unicode="&#xc7;" horiz-adv-x="720" d="M200 240l40 -160l80 -40h80l120 80l120 120l40 -40l-240 -240l40 -40v-80l-40 -80h-120l-40 80l40 40l40 -80h40l40 80l-40 40v40l31 40h-151l-160 80l-80 200l40 200l80 120l120 120l160 80h120l200 -80l40 -80l-80 -80h-80v120l-80 80h-80l-200 -160l-80 -240v-120z " />
<glyph unicode="&#xc8;" horiz-adv-x="720" d="M600 880h-40l-120 120v40l40 40h40zM640 240l-40 -280l-80 40h-560l120 80l200 640l-80 80h400l160 40l40 -240h-40l-120 160h-200l-40 -40l-80 -240v-40h160l80 80v-200l-80 80h-160l-40 -40l-80 -280l40 -40h240l120 200h40z" />
<glyph unicode="&#xc9;" horiz-adv-x="720" d="M440 880l160 160h40l40 -40v-40l-200 -80h-40zM640 240l-40 -280l-80 40h-560l120 80l200 640l-80 80h400l160 40l40 -240h-40l-120 160h-200l-40 -40l-80 -240v-40h160l80 80v-200l-80 80h-160l-40 -40l-80 -280l40 -40h240l120 200h40z" />
<glyph unicode="&#xca;" horiz-adv-x="720" d="M360 880l240 160h80v-160h-50v90l-230 -90h-40zM640 240l-40 -280l-80 40h-560l120 80l200 640l-80 80h400l160 40l40 -240h-40l-120 160h-200l-40 -40l-80 -240v-40h160l80 80v-200l-80 80h-160l-40 -40l-80 -280l40 -40h240l120 200h40z" />
<glyph unicode="&#xcb;" horiz-adv-x="720" d="M420 1040h80v-80l-40 -40h-40l-40 40v40zM580 1040h80v-80l-40 -40h-40l-40 40v40zM640 240l-40 -280l-80 40h-560l120 80l200 640l-80 80h400l160 40l40 -240h-40l-120 160h-200l-40 -40l-80 -240v-40h160l80 80v-200l-80 80h-160l-40 -40l-80 -280l40 -40h240l120 200 h40z" />
<glyph unicode="&#xcc;" horiz-adv-x="400" d="M440 880h-40l-120 120v40l40 40h40zM200 80l80 -80h-320l120 80l200 640l-80 80h320l-120 -80z" />
<glyph unicode="&#xcd;" horiz-adv-x="400" d="M280 880l160 160h40l40 -40v-40l-200 -80h-40zM200 80l80 -80h-320l120 80l200 640l-80 80h320l-120 -80z" />
<glyph unicode="&#xce;" horiz-adv-x="400" d="M200 880l240 160h80v-160h-50v90l-230 -90h-40zM200 80l80 -80h-320l120 80l200 640l-80 80h320l-120 -80z" />
<glyph unicode="&#xcf;" horiz-adv-x="400" d="M260 1040h80v-80l-40 -40h-40l-40 40v40zM420 1040h80v-80l-40 -40h-40l-40 40v40zM200 80l80 -80h-320l120 80l200 640l-80 80h320l-120 -80z" />
<glyph unicode="&#xd1;" horiz-adv-x="880" d="M440 1040l80 -80l80 80h80l80 -80l-40 -40l-80 80l-80 -80h-80l-80 80zM680 40l-120 -80l-200 800l-200 -680l80 -80h-280l120 80l200 640l-80 80h280l160 -680l160 600l-80 80h280l-120 -80z" />
<glyph unicode="&#xd2;" horiz-adv-x="840" d="M670 880h-40l-120 120v40l40 40h40zM600 80l-160 -80h-120l-200 80l-80 200l40 200l80 120l120 120l160 80h120l200 -80l80 -200l-40 -200l-80 -120zM680 560l-40 160l-80 40h-80l-200 -160l-80 -240v-120l40 -160l80 -40h80l80 40l120 120l80 240v120z" />
<glyph unicode="&#xd3;" horiz-adv-x="840" d="M510 880l160 160h40l40 -40v-40l-200 -80h-40zM600 80l-160 -80h-120l-200 80l-80 200l40 200l80 120l120 120l160 80h120l200 -80l80 -200l-40 -200l-80 -120zM680 560l-40 160l-80 40h-80l-200 -160l-80 -240v-120l40 -160l80 -40h80l80 40l120 120l80 240v120z" />
<glyph unicode="&#xd4;" horiz-adv-x="840" d="M430 880l240 160h80v-160h-50v90l-230 -90h-40zM600 80l-160 -80h-120l-200 80l-80 200l40 200l80 120l120 120l160 80h120l200 -80l80 -200l-40 -200l-80 -120zM680 560l-40 160l-80 40h-80l-200 -160l-80 -240v-120l40 -160l80 -40h80l80 40l120 120l80 240v120z" />
<glyph unicode="&#xd5;" horiz-adv-x="840" d="M430 1040l80 -80l80 80h80l80 -80l-40 -40l-80 80l-80 -80h-80l-80 80zM600 80l-160 -80h-120l-200 80l-80 200l40 200l80 120l120 120l160 80h120l200 -80l80 -200l-40 -200l-80 -120zM680 560l-40 160l-80 40h-80l-200 -160l-80 -240v-120l40 -160l80 -40h80l80 40 l120 120l80 240v120z" />
<glyph unicode="&#xd6;" horiz-adv-x="840" d="M490 1040h80v-80l-40 -40h-40l-40 40v40zM650 1040h80v-80l-40 -40h-40l-40 40v40zM600 80l-160 -80h-120l-200 80l-80 200l40 200l80 120l120 120l160 80h120l200 -80l80 -200l-40 -200l-80 -120zM680 560l-40 160l-80 40h-80l-200 -160l-80 -240v-120l40 -160l80 -40 h80l80 40l120 120l80 240v120z" />
<glyph unicode="&#xd7;" horiz-adv-x="641" d="M81 160l200 160l-201 160l81 80l160 -200l160 200l80 -80l-200 -160l200 -160l-80 -80l-160 200l-160 -200z" />
<glyph unicode="&#xd8;" horiz-adv-x="960" d="M640 80l-160 -80h-120l-88 35l-72 -115h-40l80 128l-80 32l-80 200l40 200l80 120l120 120l160 80h120l88 -35l72 115h40l-80 -128l80 -32l80 -200l-40 -200l-80 -120zM240 240l34 -137l391 625l-65 32h-80l-200 -160l-80 -240v-120zM720 560l-34 137l-391 -625l65 -32 h80l80 40l120 120l80 240v120z" />
<glyph unicode="&#xd9;" horiz-adv-x="840" d="M680 880h-40l-120 120v40l40 40h40zM680 240l-80 -120l-80 -80l-120 -40h-80l-160 40l-80 80v120l160 480l-80 80h320l-120 -80l-160 -480v-80l40 -80l80 -40h40l120 40l40 40l80 120l120 480l-80 80h320l-120 -80z" />
<glyph unicode="&#xda;" horiz-adv-x="840" d="M520 880l160 160h40l40 -40v-40l-200 -80h-40zM680 240l-80 -120l-80 -80l-120 -40h-80l-160 40l-80 80v120l160 480l-80 80h320l-120 -80l-160 -480v-80l40 -80l80 -40h40l120 40l40 40l80 120l120 480l-80 80h320l-120 -80z" />
<glyph unicode="&#xdb;" horiz-adv-x="840" d="M440 880l240 160h80v-160h-50v90l-230 -90h-40zM680 240l-80 -120l-80 -80l-120 -40h-80l-160 40l-80 80v120l160 480l-80 80h320l-120 -80l-160 -480v-80l40 -80l80 -40h40l120 40l40 40l80 120l120 480l-80 80h320l-120 -80z" />
<glyph unicode="&#xdc;" horiz-adv-x="840" d="M500 1040h80v-80l-40 -40h-40l-40 40v40zM660 1040h80v-80l-40 -40h-40l-40 40v40zM680 240l-80 -120l-80 -80l-120 -40h-80l-160 40l-80 80v120l160 480l-80 80h320l-120 -80l-160 -480v-80l40 -80l80 -40h40l120 40l40 40l80 120l120 480l-80 80h320l-120 -80z" />
<glyph unicode="&#xdd;" d="M480 880l160 160h40l40 -40v-40l-200 -80h-40zM400 520v-80h40l240 280l-80 80h280l-120 -80l-320 -360l-80 -280l80 -80h-320l120 80l80 280l-80 360l-80 80h280l-80 -80z" />
<glyph unicode="&#xdf;" d="M360 40h40l80 80v80l-40 160v80l40 80l160 40v80l-40 80h-80l-80 -80l-80 -160l-280 -640l-120 -120l-80 -40l-120 40v120l80 40l40 -40v-80h40l320 720h-120v40h80l80 40l80 80l80 120l120 40l120 -40l40 -80l40 -160h-120l-80 -40v-80l40 -200v-80l-80 -80l-120 -40 h-80l-80 40v120l80 40l40 -40v-120z" />
<glyph unicode="&#xe0;" horiz-adv-x="720" d="M480 640h-40l-120 120v40l40 40h40zM640 520l-200 -440h40l200 200l40 -40l-200 -200l-120 -40l-40 40v80l-120 -120h-80l-80 40l-40 160l80 200l200 160l160 -40l40 -80l80 120zM240 80l120 120l120 160v40l-40 80h-80l-120 -120l-80 -160l40 -120h40z" />
<glyph unicode="&#xe1;" horiz-adv-x="720" d="M400 640l160 160h40l40 -40v-40l-200 -80h-40zM640 520l-200 -440h40l200 200l40 -40l-200 -200l-120 -40l-40 40v80l-120 -120h-80l-80 40l-40 160l80 200l200 160l160 -40l40 -80l80 120zM240 80l120 120l120 160v40l-40 80h-80l-120 -120l-80 -160l40 -120h40z" />
<glyph unicode="&#xe2;" horiz-adv-x="720" d="M320 640l240 160h80v-160h-50v90l-230 -90h-40zM640 520l-200 -440h40l200 200l40 -40l-200 -200l-120 -40l-40 40v80l-120 -120h-80l-80 40l-40 160l80 200l200 160l160 -40l40 -80l80 120zM240 80l120 120l120 160v40l-40 80h-80l-120 -120l-80 -160l40 -120h40z" />
<glyph unicode="&#xe3;" horiz-adv-x="720" d="M320 800l80 -80l80 80h80l80 -80l-40 -40l-80 80l-80 -80h-80l-80 80zM640 520l-200 -440h40l200 200l40 -40l-200 -200l-120 -40l-40 40v80l-120 -120h-80l-80 40l-40 160l80 200l200 160l160 -40l40 -80l80 120zM240 80l120 120l120 160v40l-40 80h-80l-120 -120 l-80 -160l40 -120h40z" />
<glyph unicode="&#xe4;" horiz-adv-x="720" d="M380 800h80v-80l-40 -40h-40l-40 40v40zM540 800h80v-80l-40 -40h-40l-40 40v40zM640 520l-200 -440h40l200 200l40 -40l-200 -200l-120 -40l-40 40v80l-120 -120h-80l-80 40l-40 160l80 200l200 160l160 -40l40 -80l80 120zM240 80l120 120l120 160v40l-40 80h-80 l-120 -120l-80 -160l40 -120h40z" />
<glyph unicode="&#xe5;" horiz-adv-x="720" d="M380 760l80 80h40l80 -80v-40l-80 -80h-40l-80 80v40zM420 720l40 -40h40l40 40v40l-40 40h-40l-40 -40v-40zM640 520l-200 -440h40l200 200l40 -40l-200 -200l-120 -40l-40 40v80l-120 -120h-80l-80 40l-40 160l80 200l200 160l160 -40l40 -80l80 120zM240 80l120 120 l120 160v40l-40 80h-80l-120 -120l-80 -160l40 -120h40z" />
<glyph unicode="&#xe6;" horiz-adv-x="920" d="M920 360l-120 -80h-200v40h120l80 40v120h-80l-120 -120l-80 -160l40 -120h80l160 160l40 -40l-160 -160l-80 -40h-80l-80 120l-40 -120h-40l40 160l-160 -160h-80l-80 40l-40 160l80 200l200 160l160 -40l40 -80h40l160 120l160 -40l40 -80v-80zM240 80l120 120l120 160 v40l-40 80h-80l-120 -120l-80 -160l40 -120h40z" />
<glyph unicode="&#xe7;" horiz-adv-x="560" d="M200 -280h-120l-40 80l40 40l40 -80h40l40 80l-40 40v40l62 80h-62l-80 40l-40 160l120 240l200 120l160 -40l40 -80v-80h-120v120h-80l-120 -120l-80 -160l40 -120h80l160 160l40 -40l-280 -280l40 -40v-80z" />
<glyph unicode="&#xe8;" horiz-adv-x="560" d="M480 640h-40l-120 120v40l40 40h40zM560 360l-120 -80h-200v40h120l80 40v120h-80l-120 -120l-80 -160l40 -120h80l160 160l40 -40l-160 -160l-80 -40h-80l-80 40l-40 160l120 240l200 120l160 -40l40 -80v-80z" />
<glyph unicode="&#xe9;" horiz-adv-x="560" d="M320 640l160 160h40l40 -40v-40l-200 -80h-40zM560 360l-120 -80h-200v40h120l80 40v120h-80l-120 -120l-80 -160l40 -120h80l160 160l40 -40l-160 -160l-80 -40h-80l-80 40l-40 160l120 240l200 120l160 -40l40 -80v-80z" />
<glyph unicode="&#xea;" horiz-adv-x="560" d="M240 640l240 160h80v-160h-50v90l-230 -90h-40zM560 360l-120 -80h-200v40h120l80 40v120h-80l-120 -120l-80 -160l40 -120h80l160 160l40 -40l-160 -160l-80 -40h-80l-80 40l-40 160l120 240l200 120l160 -40l40 -80v-80z" />
<glyph unicode="&#xeb;" horiz-adv-x="560" d="M300 800h80v-80l-40 -40h-40l-40 40v40zM460 800h80v-80l-40 -40h-40l-40 40v40zM560 360l-120 -80h-200v40h120l80 40v120h-80l-120 -120l-80 -160l40 -120h80l160 160l40 -40l-160 -160l-80 -40h-80l-80 40l-40 160l120 240l200 120l160 -40l40 -80v-80z" />
<glyph unicode="&#xec;" horiz-adv-x="440" d="M450 640h-40l-120 120v40l40 40h40zM0 320l200 200l120 40l80 -40v-40l-240 -400h40l200 200l40 -40l-200 -200l-80 -40h-80l-40 40v40l240 400h-40l-200 -200z" />
<glyph unicode="&#xed;" horiz-adv-x="440" d="M290 640l160 160h40l40 -40v-40l-200 -80h-40zM0 320l200 200l120 40l80 -40v-40l-240 -400h40l200 200l40 -40l-200 -200l-80 -40h-80l-40 40v40l240 400h-40l-200 -200z" />
<glyph unicode="&#xee;" horiz-adv-x="440" d="M210 640l240 160h80v-160h-50v90l-230 -90h-40zM0 320l200 200l120 40l80 -40v-40l-240 -400h40l200 200l40 -40l-200 -200l-80 -40h-80l-40 40v40l240 400h-40l-200 -200z" />
<glyph unicode="&#xef;" horiz-adv-x="440" d="M270 800h80v-80l-40 -40h-40l-40 40v40zM430 800h80v-80l-40 -40h-40l-40 40v40zM0 320l200 200l120 40l80 -40v-40l-240 -400h40l200 200l40 -40l-200 -200l-80 -40h-80l-40 40v40l240 400h-40l-200 -200z" />
<glyph unicode="&#xf1;" d="M350 800l80 -80l80 80h80l80 -80l-40 -40l-80 80l-80 -80h-80l-80 80zM0 320l200 200l120 40l40 -40v-40l-40 -80l120 120l120 40l120 -40v-120l-200 -320h40l200 200l40 -40l-200 -200l-80 -40h-80l-40 40v40l200 360l-40 40l-80 -40l-120 -120l-160 -320h-80l-40 40 l240 440h-40l-200 -200z" />
<glyph unicode="&#xf2;" horiz-adv-x="640" d="M510 640h-40l-120 120v40l40 40h40zM200 0l-80 40l-80 160l120 240l200 120l160 -40l80 -160l-120 -240l-200 -120h-80zM360 480l-120 -120l-80 -160l40 -120h80l120 120l80 160l-40 120h-80z" />
<glyph unicode="&#xf3;" horiz-adv-x="640" d="M350 640l160 160h40l40 -40v-40l-200 -80h-40zM200 0l-80 40l-80 160l120 240l200 120l160 -40l80 -160l-120 -240l-200 -120h-80zM360 480l-120 -120l-80 -160l40 -120h80l120 120l80 160l-40 120h-80z" />
<glyph unicode="&#xf4;" horiz-adv-x="640" d="M270 640l240 160h80v-160h-50v90l-230 -90h-40zM200 0l-80 40l-80 160l120 240l200 120l160 -40l80 -160l-120 -240l-200 -120h-80zM360 480l-120 -120l-80 -160l40 -120h80l120 120l80 160l-40 120h-80z" />
<glyph unicode="&#xf5;" horiz-adv-x="640" d="M270 800l80 -80l80 80h80l80 -80l-40 -40l-80 80l-80 -80h-80l-80 80zM200 0l-80 40l-80 160l120 240l200 120l160 -40l80 -160l-120 -240l-200 -120h-80zM360 480l-120 -120l-80 -160l40 -120h80l120 120l80 160l-40 120h-80z" />
<glyph unicode="&#xf6;" horiz-adv-x="640" d="M330 800h80v-80l-40 -40h-40l-40 40v40zM490 800h80v-80l-40 -40h-40l-40 40v40zM200 0l-80 40l-80 160l120 240l200 120l160 -40l80 -160l-120 -240l-200 -120h-80zM360 480l-120 -120l-80 -160l40 -120h80l120 120l80 160l-40 120h-80z" />
<glyph unicode="&#xf7;" horiz-adv-x="480" d="M240 520h40l40 -40v-40l-40 -40h-40l-40 40v40zM80 320h360v-40h-360v40zM280 80h-40l-40 40v40l40 40h40l40 -40v-40z" />
<glyph unicode="&#xf8;" horiz-adv-x="560" d="M200 0l-46 23l-74 -103h-40l85 118l-5 2l-80 160l120 240l200 120l120 -30l80 110h40l-86 -119l6 -1l80 -160l-120 -240l-200 -120h-80zM360 480l-120 -120l-80 -160l26 -78l255 354l-1 4h-80zM200 80h80l120 120l80 160l-26 78l-255 -354z" />
<glyph unicode="&#xf9;" d="M590 640h-40l-120 120v40l40 40h40zM760 240l-200 -200l-80 -40h-40l-40 40v80l-120 -120h-80l-80 40l-40 120l200 320h-40l-200 -200l-40 40l200 200l120 40l80 -40v-40l-200 -320l40 -80h40l160 160l160 280h80l40 -40l-240 -400h40l200 200z" />
<glyph unicode="&#xfa;" d="M430 640l160 160h40l40 -40v-40l-200 -80h-40zM760 240l-200 -200l-80 -40h-40l-40 40v80l-120 -120h-80l-80 40l-40 120l200 320h-40l-200 -200l-40 40l200 200l120 40l80 -40v-40l-200 -320l40 -80h40l160 160l160 280h80l40 -40l-240 -400h40l200 200z" />
<glyph unicode="&#xfb;" d="M350 640l240 160h80v-160h-50v90l-230 -90h-40zM760 240l-200 -200l-80 -40h-40l-40 40v80l-120 -120h-80l-80 40l-40 120l200 320h-40l-200 -200l-40 40l200 200l120 40l80 -40v-40l-200 -320l40 -80h40l160 160l160 280h80l40 -40l-240 -400h40l200 200z" />
<glyph unicode="&#xfc;" d="M410 800h80v-80l-40 -40h-40l-40 40v40zM570 800h80v-80l-40 -40h-40l-40 40v40zM760 240l-200 -200l-80 -40h-40l-40 40v80l-120 -120h-80l-80 40l-40 120l200 320h-40l-200 -200l-40 40l200 200l120 40l80 -40v-40l-200 -320l40 -80h40l160 160l160 280h80l40 -40 l-240 -400h40l200 200z" />
<glyph unicode="&#xfd;" horiz-adv-x="680" d="M440 640l160 160h40l40 -40v-40l-200 -80h-40zM480 320l120 200h80l40 -40l-360 -560l-120 -160l-120 -80h-40l-80 40v120l80 40l40 -40v-80h40l40 40l80 120l160 280l-160 -160l-80 -40h-80l-40 40v40l200 400h-40l-200 -200l-40 40l200 200l120 40l80 -40v-40 l-200 -400h40z" />
<glyph unicode="&#xff;" horiz-adv-x="680" d="M420 800h80v-80l-40 -40h-40l-40 40v40zM580 800h80v-80l-40 -40h-40l-40 40v40zM480 320l120 200h80l40 -40l-360 -560l-120 -160l-120 -80h-40l-80 40v120l80 40l40 -40v-80h40l40 40l80 120l160 280l-160 -160l-80 -40h-80l-40 40v40l200 400h-40l-200 -200l-40 40 l200 200l120 40l80 -40v-40l-200 -400h40z" />
<glyph unicode="&#x152;" horiz-adv-x="1000" d="M880 800l160 40l40 -240h-40l-120 160h-160l-40 -40l-80 -240v-40h120l80 80v-200l-80 80h-120l-40 -40l-80 -280l40 -40h200l120 200h40l-40 -280l-80 40h-440l-240 80l-80 200l40 200l80 120l120 120l160 80h440zM600 760h-120l-200 -160l-80 -240v-120l40 -120 l160 -80z" />
<glyph unicode="&#x153;" horiz-adv-x="920" d="M200 0l-80 40l-80 160l120 240l200 120l160 -40l31 -62l169 102l160 -40l40 -80v-80l-120 -80h-200v40h120l80 40v120h-80l-120 -120l-80 -160l40 -120h80l160 160l40 -40l-160 -160l-80 -40h-80l-80 40l-12 49l-148 -89h-80zM360 480l-120 -120l-80 -160l40 -120h80 l120 120l80 160l-40 120h-80z" />
<glyph unicode="&#x178;" d="M460 1040h80v-80l-40 -40h-40l-40 40v40zM620 1040h80v-80l-40 -40h-40l-40 40v40zM400 520v-80h40l240 280l-80 80h280l-120 -80l-320 -360l-80 -280l80 -80h-320l120 80l80 280l-80 360l-80 80h280l-80 -80z" />
<glyph unicode="&#x2c6;" horiz-adv-x="833" d="M160 640l240 160h80v-160h-50v90l-230 -90h-40z" />
<glyph unicode="&#x2dc;" horiz-adv-x="833" d="M240 800l80 -80l80 80h80l80 -80l-40 -40l-80 80l-80 -80h-80l-80 80z" />
<glyph unicode="&#x2000;" horiz-adv-x="540" />
<glyph unicode="&#x2001;" horiz-adv-x="1080" />
<glyph unicode="&#x2002;" horiz-adv-x="540" />
<glyph unicode="&#x2003;" horiz-adv-x="1080" />
<glyph unicode="&#x2004;" horiz-adv-x="360" />
<glyph unicode="&#x2005;" horiz-adv-x="270" />
<glyph unicode="&#x2006;" horiz-adv-x="180" />
<glyph unicode="&#x2007;" horiz-adv-x="180" />
<glyph unicode="&#x2008;" horiz-adv-x="135" />
<glyph unicode="&#x2009;" horiz-adv-x="216" />
<glyph unicode="&#x200a;" horiz-adv-x="60" />
<glyph unicode="&#x2010;" horiz-adv-x="320" d="M40 320h240v-80h-240v80z" />
<glyph unicode="&#x2011;" horiz-adv-x="320" d="M40 320h240v-80h-240v80z" />
<glyph unicode="&#x2012;" horiz-adv-x="320" d="M40 320h240v-80h-240v80z" />
<glyph unicode="&#x2013;" horiz-adv-x="480" d="M80 320h320v-40h-320v40z" />
<glyph unicode="&#x2014;" horiz-adv-x="800" d="M80 320h640v-40h-640v40z" />
<glyph unicode="&#x2018;" horiz-adv-x="200" d="M200 800h40l-80 -200l-40 -40h-40l-40 40v40z" />
<glyph unicode="&#x2019;" horiz-adv-x="200" d="M120 560l80 200l40 40h40l40 -40v-40l-160 -160h-40z" />
<glyph unicode="&#x201a;" horiz-adv-x="200" d="M80 40h40l-80 -200l-40 -40h-40l-40 40v40z" />
<glyph unicode="&#x201c;" horiz-adv-x="440" d="M280 800h40l-80 -200l-40 -40h-40l-40 40v40zM440 800h40l-80 -200l-40 -40h-40l-40 40v40z" />
<glyph unicode="&#x201d;" horiz-adv-x="360" d="M120 560l80 200l40 40h40l40 -40v-40l-160 -160h-40zM280 560l80 200l40 40h40l40 -40v-40l-160 -160h-40z" />
<glyph unicode="&#x201e;" horiz-adv-x="440" d="M80 40h40l-80 -200l-40 -40h-40l-40 40v40zM240 40h40l-80 -200l-40 -40h-40l-40 40v40z" />
<glyph unicode="&#x2022;" horiz-adv-x="440" d="M200 160l-120 80v80l80 120h80l120 -80v-80l-80 -120h-80z" />
<glyph unicode="&#x2026;" horiz-adv-x="640" d="M80 0l-80 40v40l40 80h40l80 -40v-40l-40 -80h-40zM320 0l-80 40v40l40 80h40l80 -40v-40l-40 -80h-40zM560 0l-80 40v40l40 80h40l80 -40v-40l-40 -80h-40z" />
<glyph unicode="&#x202f;" horiz-adv-x="216" />
<glyph unicode="&#x205f;" horiz-adv-x="270" />
<glyph unicode="&#x20ac;" d="M600 440h-320l-40 -120h240v-40h-240v-40l40 -160l80 -40h80l120 80l120 120l40 -40l-120 -120l-120 -80h-160l-160 80l-80 200h-80v40h80l40 120h-80v40h80l80 120l120 120l160 80h120l200 -80l40 -80l-80 -80h-80v120l-80 80h-80l-200 -160l-40 -120h320v-40z" />
<glyph unicode="&#x25fc;" horiz-adv-x="560" d="M0 560h560v-560h-560v560z" />
</font>
</defs>
</svg>
